Home| All Programs| Today added Progs| Download Status| Customers opinion| Helpdesk| Shopping cart

Program Search:

Shopping Cart:




*Note: Minimum order cost: €20
Maximum Total Price: €1500
We Recommend:
Al Brooks - Brooks Trading Course 2018 €40 buy download

× Al Brooks - Brooks Trading Course 2018 Close
Al Brooks - Brooks Trading Course 2018WEBRip | English | MP4 | 1280 x 720 | AVC ~539 Kbps | 30 fps
AAC | 68.8 Kbps | 44.1 KHz | 2 channels | ~80 hours | 21.21 GBGenre: eLearning Video / Trading, Stock
Make money trading any market My goal is to teach you how to make money by trading any market, including the Emini, Forex foreign exchange, currency futures, commodities like gold and crude oil, the stock market, and options.Although I personally day trade online using 5 minute charts, I often hold positions overnight based on 60 minute, daily, weekly, and monthly charts, and I use the same price action techniques for all markets and time frames. I strongly believe that anyone who wants to learn how to trade has to focus on understanding price action, and that the course contents of the Brooks Trading Course is the best approach to trading markets.
The most comprehensive source of information on price action trading available. Filled with profitable concepts not found elsewhere-except on sites "borrowing" Al's ideas.

- Learn price action trading from one of the world's leading authorities.
- Costs significantly less than most other trading courses. Yet equivalent to an MBA in trading.
- Make money trading any market or timeframe. Covers futures, forex, stocks, bonds, ETFs and commodities.

The Downlload Contents:
- Price Action Fundamentals Base Course
- How to Trade Price Action Course
- How to Trade Forex Price Action Course

also You can find my other: Trading-posts

MediaInfo: General
Complete name : Video 03C Forex Basics.mp4
Format : MPEG-4
Format profile : Base Media
Codec ID : isom (isom/iso2/avc1/mp41)
File size : 61.6 MiB
Duration : 14 min 4 s
Overall bit rate mode : Variable
Overall bit rate : 612 kb/s
Encoded date : UTC 2018-09-01 15:32:54
Tagged date : UTC 2018-09-01 15:32:54
Writing application : Lavf51.12.1

Video
ID : 1
Format : AVC
Format/Info : Advanced Video Codec
Format profile : High@L3.1
Format settings : CABAC / 1 Ref Frames
Format settings, CABAC : Yes
Format settings, RefFrames : 1 frame
Format settings, GOP : M=1, N=12
Codec ID : avc1
Codec ID/Info : Advanced Video Coding
Duration : 14 min 4 s
Bit rate mode : Variable
Bit rate : 539 kb/s
Width : 1 280 pixels
Height : 720 pixels
Display aspect ratio : 16:9
Frame rate mode : Constant
Frame rate : 30.000 FPS
Color space : RGB
Chroma subsampling : 4:2:0
Bit depth : 8 bits
Scan type : Progressive
Bits/(Pixel*Frame) : 0.019
Stream size : 54.2 MiB (88%)
Encoded date : UTC 2018-09-01 15:32:54
Tagged date : UTC 2018-09-01 15:32:54
Color range : Limited
Matrix coefficients : Identity

Audio
ID : 2
Format : AAC
Format/Info : Advanced Audio Codec
Format profile : LC
Codec ID : mp4a-40-2
Duration : 14 min 4 s
Bit rate mode : Variable
Bit rate : 68.8 kb/s
Channel(s) : 2 channels
Channel positions : Front: L R
Sampling rate : 44.1 kHz
Frame rate : 43.066 FPS (1024 SPF)
Compression mode : Lossy
Stream size : 6.93 MiB (11%)
Encoded date : UTC 2018-09-01 15:32:54
Tagged date : UTC 2018-09-01 15:32:54
Screenshots
× Al Brooks - Brooks Trading Course 2018 Close
× Al Brooks - Brooks Trading Course 2018 Close
× Al Brooks - Brooks Trading Course 2018 Close
× Al Brooks - Brooks Trading Course 2018 Close
✅ Exclusive eLearning Videos ParRus-blog ← add to bookmarks

Feel free to contact me PM
when links are dead or want any repost
× Al Brooks - Brooks Trading Course 2018 Close



Download File Size:18.62 GB


Al Brooks - Brooks Trading Course 2018
€40
Customers who bought this program also bought:

Home| All Programs| Today added Progs| Download Status| Customers opinion| Helpdesk| Shopping cart      
Copyright 2006-2019 ©   LPStore   All Rights Reserved





Adobe Acrobat Pro DC 2019.012.20034 Multilingual €70


MathWorks MATLAB R2019a (1 dvd) €100


Adobe Acrobat Pro DC 2019.012.20034 Multilingual for Mac €70






Autodesk AutoCAD 2020 €100

             

SolidWorks 2019 SP3.0 Premium Multilingual €110






FileMaker Pro 18 Advanced 18.0.2.209 Multilingual €60


Pinnacle Studio Ultimate 22 €25


CorelDRAW Graphics Suite 2019 Multilingual €60